User log in
User registration
Registrations are closed. If you have an invitation code, click here, or join our twitter, we post invites often there.
Email: forgotten email?
Password: lost pass?
  Resend activation email
Protect your privacy! Use a VPN When Downloading Torrents
Your country is United States of America. Your IP Address is 54.92.170.149.
Your Internet Provider is tracking your torrent activity! Hide your IP ADDRESS with a VPN!
We strongly recommend using NORD VPN to anonymize your torrenting.
Also, while using NORD you get No Ads for Demonoid members Get VPN Now!
Details for VA - Club Sounds 90s Vol-2 [3CD] (2016) FLAC
Created by Ratio: 1.00valami16
Music : Dance / Disco : MP3/64Kbps
Complete name : VA - Club Sounds 90s Vol-2 [3CD] (2016) FLAC\01 - Snap! - The Power.flac
Format : FLAC
Format/Info : Free Lossless Audio Codec
File size : 27.3 MiB
Duration : 3 min 48 s
Overall bit rate mode : Variable
Overall bit rate : 1 003 kb/s
Album : Club Sounds 90s: The Ultimate Club Dance Collection, Vol. 2
Album/Performer : VA
Part : 1
Part/Total : 3
Track name : The Power
Track name/Position : 1
Track name/Total : 66
Performer : Snap!
Genre : Dance
Recorded date : 2016
Cover : Yes
Cover type : Cover (front)
Cover MIME : image/jpeg
Comment : Sme Media
Analyzed: 2 Unlimited / Club Sounds 90s: The Ultimate Club Dance Collection, Vol. 2 (1)
Ace Of Base / Club Sounds 90s: The Ultimate Club Dance Collection, Vol. 2 (2)
Alice Deejay / Club Sounds 90s: The Ultimate Club Dance Collection, Vol. 2 (3)
Ann Lee / Club Sounds 90s: The Ultimate Club Dance Collection, Vol. 2 (4)
ATB / Club Sounds 90s: The Ultimate Club Dance Collection, Vol. 2 (5)
Azzido Da Bass / Club Sounds 90s: The Ultimate Club Dance Collection, Vol. 2 (6)
Blank & Jones / Club Sounds 90s: The Ultimate Club Dance Collection, Vol. 2 (7)
Blümchen / Club Sounds 90s: The Ultimate Club Dance Collection, Vol. 2 (8)
Bomfunk Mc's / Club Sounds 90s: The Ultimate Club Dance Collection, Vol. 2 (9)
Brooklyn Bounce / Club Sounds 90s: The Ultimate Club Dance Collection, Vol. 2 (10)
Cappella / Club Sounds 90s: The Ultimate Club Dance Collection, Vol. 2 (11)
Captain Hollywood Project / Club Sounds 90s: The Ultimate Club Dance Collection, Vol. 2 (12)
Celvin Rotane / Club Sounds 90s: The Ultimate Club Dance Collection, Vol. 2 (13)
Chicane / Club Sounds 90s: The Ultimate Club Dance Collection, Vol. 2 (14)
Crystal Waters / Club Sounds 90s: The Ultimate Club Dance Collection, Vol. 2 (15)
Culture Beat / Club Sounds 90s: The Ultimate Club Dance Collection, Vol. 2 (16)
Dance 2 Trance / Club Sounds 90s: The Ultimate Club Dance Collection, Vol. 2 (17)
Darude / Club Sounds 90s: The Ultimate Club Dance Collection, Vol. 2 (18)
DJ Bobo / Club Sounds 90s: The Ultimate Club Dance Collection, Vol. 2 (19)
DJ Sakin & Friends / Club Sounds 90s: The Ultimate Club Dance Collection, Vol. 2 (20)
Double You / Club Sounds 90s: The Ultimate Club Dance Collection, Vol. 2 (21)
Dr Motte And Westbam / Club Sounds 90s: The Ultimate Club Dance Collection, Vol. 2 (22)
Dr. Alban / Club Sounds 90s: The Ultimate Club Dance Collection, Vol. 2 (23)
Dune / Club Sounds 90s: The Ultimate Club Dance Collection, Vol. 2 (24)
Eiffel 65 / Club Sounds 90s: The Ultimate Club Dance Collection, Vol. 2 (25)
Elektrochemie LK / Club Sounds 90s: The Ultimate Club Dance Collection, Vol. 2 (26)
E-Rotic / Club Sounds 90s: The Ultimate Club Dance Collection, Vol. 2 (27)
Faithless / Club Sounds 90s: The Ultimate Club Dance Collection, Vol. 2 (28)
Gala / Club Sounds 90s: The Ultimate Club Dance Collection, Vol. 2 (29)
Gigi D'agostino / Club Sounds 90s: The Ultimate Club Dance Collection, Vol. 2 (30)
Haddaway / Club Sounds 90s: The Ultimate Club Dance Collection, Vol. 2 (31)
Ice Mc / Club Sounds 90s: The Ultimate Club Dance Collection, Vol. 2 (32)
Jam & Spoon feat. Plavka / Club Sounds 90s: The Ultimate Club Dance Collection, Vol. 2 (33)
Kai Tracid / Club Sounds 90s: The Ultimate Club Dance Collection, Vol. 2 (34)
La Bouche / Club Sounds 90s: The Ultimate Club Dance Collection, Vol. 2 (35)
Los Del Rio / Club Sounds 90s: The Ultimate Club Dance Collection, Vol. 2 (36)
Love Message / Club Sounds 90s: The Ultimate Club Dance Collection, Vol. 2 (37)
Mark'Oh / Club Sounds 90s: The Ultimate Club Dance Collection, Vol. 2 (38)
Masterboy / Club Sounds 90s: The Ultimate Club Dance Collection, Vol. 2 (39)
Mauro Picotto / Club Sounds 90s: The Ultimate Club Dance Collection, Vol. 2 (40)
Members Of Mayday / Club Sounds 90s: The Ultimate Club Dance Collection, Vol. 2 (41)
Mr. Oizo / Club Sounds 90s: The Ultimate Club Dance Collection, Vol. 2 (42)
Mr. President / Club Sounds 90s: The Ultimate Club Dance Collection, Vol. 2 (43)
Music Instructor feat. ABE / Club Sounds 90s: The Ultimate Club Dance Collection, Vol. 2 (44)
No Mercy / Club Sounds 90s: The Ultimate Club Dance Collection, Vol. 2 (45)
Pharao / Club Sounds 90s: The Ultimate Club Dance Collection, Vol. 2 (46)
Phil Fuldner / Club Sounds 90s: The Ultimate Club Dance Collection, Vol. 2 (47)
Pizzaman / Club Sounds 90s: The Ultimate Club Dance Collection, Vol. 2 (48)
Prince Ital Joe feat. Marky Mark / Club Sounds 90s: The Ultimate Club Dance Collection, Vol. 2 (49)
Real Mccoy / Club Sounds 90s: The Ultimate Club Dance Collection, Vol. 2 (50)
Rollergirl / Club Sounds 90s: The Ultimate Club Dance Collection, Vol. 2 (51)
Rozalla / Club Sounds 90s: The Ultimate Club Dance Collection, Vol. 2 (52)
Salt-n-Pepa / Club Sounds 90s: The Ultimate Club Dance Collection, Vol. 2 (53)
Sash! / Club Sounds 90s: The Ultimate Club Dance Collection, Vol. 2 (54)
Scatman John / Club Sounds 90s: The Ultimate Club Dance Collection, Vol. 2 (55)
Scooter / Club Sounds 90s: The Ultimate Club Dance Collection, Vol. 2 (56)
Snap! / Club Sounds 90s: The Ultimate Club Dance Collection, Vol. 2 (57)
Storm / Club Sounds 90s: The Ultimate Club Dance Collection, Vol. 2 (58)
Suzanne Vega / Club Sounds 90s: The Ultimate Club Dance Collection, Vol. 2 (59)
Technohead / Club Sounds 90s: The Ultimate Club Dance Collection, Vol. 2 (60)
Technotronic feat. MC Eric / Club Sounds 90s: The Ultimate Club Dance Collection, Vol. 2 (61)
The 49ers / Club Sounds 90s: The Ultimate Club Dance Collection, Vol. 2 (62)
The Soundlovers / Club Sounds 90s: The Ultimate Club Dance Collection, Vol. 2 (63)
U96 / Club Sounds 90s: The Ultimate Club Dance Collection, Vol. 2 (64)
Urban Cookie Collective / Club Sounds 90s: The Ultimate Club Dance Collection, Vol. 2 (65)
Vengaboys / Club Sounds 90s: The Ultimate Club Dance Collection, Vol. 2 (66)


DR Peak RMS Duration Track
--------------------------------------------------------------------------------
DR7 -1.09 dB -9.85 dB 3:43 37-Tribal Dance
DR8 -1.08 dB -9.83 dB 3:32 03-All That She Wants
DR8 -0.08 dB -9.42 dB 3:36 47-Better Off Alone
DR8 -0.78 dB -9.39 dB 3:48 19-2 Times
DR7 -0.90 dB -9.82 dB 3:46 48-Don't Stop
DR8 -0.14 dB -10.96 dB 3:46 65-Dooms Night
DR5 -1.88 dB -7.97 dB 3:30 54-Heartbeat
DR7 -0.84 dB -9.48 dB 3:49 35-Boomerang
DR7 -0.89 dB -9.41 dB 2:53 22-Freestyler
DR8 -0.25 dB -10.17 dB 3:35 52-Get Ready To Bounce
DR9 -0.08 dB -9.90 dB 3:39 17-Move On Baby
DR9 -0.08 dB -10.20 dB 3:46 30-Flying High
DR8 -0.08 dB -10.05 dB 3:32 63-I Believe
DR8 -0.29 dB -11.39 dB 3:28 49-Saltwater
DR8 -0.08 dB -9.81 dB 3:42 43-Gypsy Woman (La Da Dee La Da Da)
DR9 -0.08 dB -10.44 dB 3:40 18-Got To Get It
DR9 -0.23 dB -10.21 dB 3:52 58-Power Of American Natives
DR6 -1.20 dB -9.66 dB 3:46 46-Sandstorm
DR8 -0.08 dB -9.97 dB 3:50 11-Everybody
DR7 -0.20 dB -9.73 dB 3:37 57-Nomansland (David's Song)
DR8 -0.09 dB -10.26 dB 3:17 33-Please Don't Go
DR7 -0.15 dB -9.95 dB 3:56 59-Sunshine
DR7 -0.78 dB -9.66 dB 4:01 02-It's My Life
DR8 -0.08 dB -10.10 dB 3:34 25-Can't Stop Raving
DR6 -1.01 dB -8.50 dB 3:31 13-Move Your Body
DR5 -1.37 dB -8.82 dB 2:57 66-Schall (Thomas Schuhmacher Remix Radio Edit)
DR7 -1.41 dB -9.49 dB 3:32 26-Max Don't Have Sex With Your Ex
DR6 -0.77 dB -8.96 dB 3:34 45-God Is A DJ
DR9 -0.08 dB -11.12 dB 3:34 14-Freed From Desire
DR5 -1.70 dB -8.42 dB 4:00 05-L' Amour Toujours
DR10 -0.08 dB -10.85 dB 4:16 12-Life
DR8 -0.85 dB -10.77 dB 4:14 28-It's A Rainy Day
DR7 -0.04 dB -7.60 dB 4:02 56-Find Me (Odyssey To Anyoona)
DR10 -0.08 dB -11.93 dB 3:58 55-Dance For Eternity
DR7 -0.68 dB -8.81 dB 3:24 27-Sweet Dreams
DR7 -1.38 dB -9.63 dB 3:53 07-Macarena (Bayside Boys Remix)
DR8 -0.08 dB -9.52 dB 3:48 16-Love Message
DR5 -1.58 dB -8.09 dB 2:59 24-Love Song
DR6 -1.01 dB -8.40 dB 3:40 15-Generation Of Love
DR6 -0.60 dB -9.01 dB 3:24 51-Komodo
DR8 -0.23 dB -10.39 dB 3:35 61-Soundtropolis
DR8 -0.58 dB -9.95 dB 3:55 21-Flat Beat
DR7 -1.08 dB -9.22 dB 3:38 08-Coco Jamboo
DR10 -0.08 dB -10.97 dB 3:46 20-Get Freaky
DR8 0.00 dB -9.76 dB 4:32 10-Where Do You Go
DR8 -1.00 dB -10.01 dB 4:12 38-I Show You Secrets
DR8 -0.39 dB -9.25 dB 3:40 62-The Final (The Captain Future Theme)
DR10 -1.07 dB -12.97 dB 3:47 42-Sex On The Streets
DR6 -1.23 dB -8.37 dB 4:01 32-United
DR6 -1.70 dB -8.53 dB 4:05 29-Run Away
DR7 -1.19 dB -9.56 dB 4:03 53-Dear Jessie
DR9 -0.08 dB -10.17 dB 3:55 40-Are You Ready To Fly
DR8 -0.60 dB -9.86 dB 3:31 09-Let's Talk About Sex
DR8 -0.33 dB -9.35 dB 3:39 50-Encore Une Fois
DR8 -0.88 dB -9.62 dB 3:30 06-Scatman (Ski-Ba-Bop-Ba-Dop-Bop)
DR6 -0.87 dB -8.71 dB 3:47 23-How Much Is The Fish?
DR9 -0.74 dB -10.64 dB 3:48 01-The Power
DR6 -1.98 dB -9.43 dB 3:29 60-Storm
DR10 -0.88 dB -11.55 dB 3:48 44-Tom's Diner (DNA Remix)
DR9 -0.10 dB -10.21 dB 3:05 36-I Wanna Be A Hippy
DR8 -0.40 dB -9.87 dB 3:38 64-The Beat Is Technotronic
DR9 -0.08 dB -10.64 dB 3:47 41-Touch Me
DR10 -0.08 dB -11.95 dB 3:14 34-Runaway
DR8 -0.09 dB -9.62 dB 3:05 31-Club Bizarre
DR8 -0.35 dB -10.33 dB 3:44 39-The Key The Secret
DR7 -1.10 dB -8.75 dB 3:24 04-Boom, Boom, Boom, Boom
Show Demonoid some love with BitCoin: 1DNoid2VRyfYn9T38Z1SZ5XncG7WMgCeUL How to get BitCoin?

Facebook Twitter Google Digg Reddit LinkedIn StumbleUpon Email

Size: 1.66 GB  
Related torrents
Torrents you may also like:
Download this torrent
Comments

No comments posted yet

Disclaimer: .None of the files shown here are actually hosted or transmitted by this server. The links are provided solely by this site's users. The site moderation is also a service provided by the site's users. The administrator of this site (demonoid.pw) cannot be held responsible for what its users post, or any other actions of its users. You may not use this site to distribute or download any material when you do not have the legal rights to do so. It is your own responsibility to adhere to these terms.

By using this site you indicate your agreement to our terms and conditions
   
Link to us | Contact us | API | Twitter: @DemonoidP2P | Feeds/RSS | DMCA
Demonoid and the Demonoid logo are Copyright © 2018 Demonoid. All rights reserved.

Show Demonoid some love with 1DNoid2VRyfYn9T38Z1SZ5XncG7WMgCeUL