User log in
User registration
Registrations are closed. If you have an invitation code, click here, or join our twitter, we post invites often there.
Email: forgotten email?
Password: lost pass?
  Resend activation email
Protect your privacy! Use a VPN When Downloading Torrents
Your country is United States of America. Your IP Address is 54.92.170.149.
Your Internet Provider is tracking your torrent activity! Hide your IP ADDRESS with a VPN!
We strongly recommend using NORD VPN to anonymize your torrenting.
Also, while using NORD you get No Ads for Demonoid members Get VPN Now!
Details for Confessions of a Brazilian Call Girl 1080p BluRay[MovieDunya
Created by Ratio: 1.00MovieDunya
Movies : Drama : HD 1080p / 1080i : Portuguese


General

Format : Matroska
Format version : Version 4 / Version 2
File size : 2.17 GiB
Duration : 1 h 50 min
Overall bit rate : 2 810 kb/s
Movie name : Confessions of a Brazilian Call Girl 1080p BluRay[MovieDunya]
Encoded date : UTC 2018-07-14 05:47:50
Writing application : mkvmerge v25.0.0 ('Prog Noir') 64-bit
Writing library : libebml v1.3.6 + libmatroska v1.4.9

Video
ID : 1
Format : AVC
Format/Info : Advanced Video Codec
Format profile : High@L4.1
Format settings : CABAC / 6 Ref Frames
Format settings, CABAC : Yes
Format settings, RefFrames : 6 frames
Codec ID : V_MPEG4/ISO/AVC
Duration : 1 h 50 min
Bit rate : 2 600 kb/s
Width : 1 920 pixels
Height : 1 080 pixels
Display aspect ratio : 16:9
Frame rate mode : Constant
Frame rate : 60.000 FPS
Color space : YUV
Chroma subsampling : 4:2:0
Bit depth : 8 bits
Scan type : Progressive
Bits/(Pixel*Frame) : 0.021
Stream size : 1.97 GiB (91%)
Title : Confessions of a Brazilian Call Girl 1080p BluRay[MovieDunya]
Writing library : x264 core 155 r2901 7d0ff22
Default : Yes
Forced : No
Color range : Limited
Color primaries : BT.601 NTSC
Transfer characteristics : BT.709
Matrix coefficients : BT.601

Audio
ID : 2
Format : AAC
Format/Info : Advanced Audio Codec
Format profile : LC
Codec ID : A_AAC-2
Duration : 1 h 50 min
Bit rate : 255 kb/s
Channel(s) : 2 channels
Channel positions : Front: L R
Sampling rate : 48.0 kHz
Frame rate : 46.875 FPS (1024 SPF)
Compression mode : Lossy
Delay relative to video : -21 ms
Stream size : 202 MiB (9%)
Title : Confessions of a Brazilian Call Girl 1080p BluRay[MovieDunya]
Default : Yes
Forced : No

Text
ID : 3
Format : UTF-8
Codec ID : S_TEXT/UTF8
Codec ID/Info : UTF-8 Plain Text
Duration : 1 h 41 min
Bit rate : 39 b/s
Count of elements : 957
Stream size : 29.7 KiB (0%)
Title : Confessions of a Brazilian Call Girl 1080p BluRay[MovieDunya]
Default : Yes
Forced : No









Show Demonoid some love with BitCoin: 1DNoid2VRyfYn9T38Z1SZ5XncG7WMgCeUL How to get BitCoin?

Facebook Twitter Google Digg Reddit LinkedIn StumbleUpon Email

Size: 2.17 GB  
Related torrents
Torrents you may also like:
Download this torrent
Comments
<< Prev      Next >>
| 1 - 1 |
Posted by Ratio: 1.00freitabatista 3 days ago
Great Film
| 1 - 1 |
<< Prev      Next >>

Disclaimer: .None of the files shown here are actually hosted or transmitted by this server. The links are provided solely by this site's users. The site moderation is also a service provided by the site's users. The administrator of this site (demonoid.pw) cannot be held responsible for what its users post, or any other actions of its users. You may not use this site to distribute or download any material when you do not have the legal rights to do so. It is your own responsibility to adhere to these terms.

By using this site you indicate your agreement to our terms and conditions
   
Link to us | Contact us | API | Twitter: @DemonoidP2P | Feeds/RSS | DMCA
Demonoid and the Demonoid logo are Copyright © 2018 Demonoid. All rights reserved.

Show Demonoid some love with 1DNoid2VRyfYn9T38Z1SZ5XncG7WMgCeUL