User log in
User registration
Registrations are closed. If you have an invitation code, click here, or join our twitter, we post invites often there.
Email: forgotten email?
Password: lost pass?
  Resend activation email
Protect your privacy! Use a VPN When Downloading Torrents
Your country is United States of America. Your IP Address is 54.92.170.149.
Your Internet Provider is tracking your torrent activity! Hide your IP ADDRESS with a VPN!
We strongly recommend using NORD VPN to anonymize your torrenting.
Also, while using NORD you get No Ads for Demonoid members Get VPN Now!
Details for First Night of the Proms (1280x720p HD, 50fps, soft Eng subs
Created by Ratio: 1.00ElsonRoa
TV : Musical : HD : English
First Night of the Proms (1280x720p HD, 50fps, soft Eng subs)

BBC Proms 2018 launches with a feast for the eyes and ears in the world premiere of Five Telegrams, with music by Anna Meredith and stunning digital projections by 59 Productions marking the centenary of the end of the First World War. The all-British programme also features Vaughan Williams's pre-war choral masterpiece Toward the Unknown Region, along with Holst's evergreen Proms favourite The Planets - the first piece Mars, Bringer of War, famously anticipates the onset of mechanistic warfare.

The BBC Symphony Orchestra is conducted by Sakari Oramo and they are joined by the combined forces of the BBC Symphony Chorus, the National Youth Choir of Great Britain and the BBC Proms Youth Ensemble. An exciting fanfare for the season.

First broadcast: 13 July 2018
Duration: 120 minutes



Media info:
General
Format : MPEG-4
Format profile : Base Media
Codec ID : isom (isom/iso2/avc1/mp41)
File size : 4.35 GiB
Duration : 2h 0mn
Overall bit rate mode : Variable
Overall bit rate : 5 177 Kbps
Writing application : Lavf57.83.100

Video
ID : 1
Format : AVC
Format/Info : Advanced Video Codec
Format profile : High@L3.2
Format settings, CABAC : Yes
Format settings, ReFrames : 2 frames
Codec ID : avc1
Codec ID/Info : Advanced Video Coding
Duration : 2h 0mn
Bit rate : 5 035 Kbps
Width : 1 280 pixels
Height : 720 pixels
Display aspect ratio : 16:9
Frame rate mode : Variable
Frame rate : 50.000 fps
Minimum frame rate : 25.000 fps
Maximum frame rate : 90 000.000 fps
Standard : Component
Color space : YUV
Chroma subsampling : 4:2:0
Bit depth : 8 bits
Scan type : Progressive
Bits/(Pixel*Frame) : 0.109
Stream size : 4.23 GiB (97%)
Encoded date : UTC 1904-01-01 00:00:00
Tagged date : UTC 1904-01-01 00:00:00
Color range : Limited
Color primaries : BT.709
Transfer characteristics : BT.709
Matrix coefficients : BT.709

Audio
ID : 2
Format : AAC
Format/Info : Advanced Audio Codec
Format profile : LC
Codec ID : 40
Duration : 2h 0mn
Bit rate mode : Variable
Bit rate : 125 Kbps
Maximum bit rate : 140 Kbps
Channel(s) : 2 channels
Channel positions : Front: L R
Sampling rate : 48.0 KHz
Frame rate : 46.875 fps (1024 spf)
Compression mode : Lossy
Stream size : 108 MiB (2%)
Show Demonoid some love with BitCoin: 1DNoid2VRyfYn9T38Z1SZ5XncG7WMgCeUL How to get BitCoin?

Facebook Twitter Google Digg Reddit LinkedIn StumbleUpon Email

Size: 4.35 GB  
Related torrents
Torrents you may also like:
Download this torrent
Comments
<< Prev      Next >>
| 1 - 2 |
Posted by Ratio: 1.00puppetshow8 5 days ago
Thank you.
Posted by Ratio: 1.00Brega10 5 days ago
As always, thank you very much!


Pain heals, Chicks dig scars....... Glory.... Lasts Forever.
| 1 - 2 |
<< Prev      Next >>

Disclaimer: .None of the files shown here are actually hosted or transmitted by this server. The links are provided solely by this site's users. The site moderation is also a service provided by the site's users. The administrator of this site (demonoid.pw) cannot be held responsible for what its users post, or any other actions of its users. You may not use this site to distribute or download any material when you do not have the legal rights to do so. It is your own responsibility to adhere to these terms.

By using this site you indicate your agreement to our terms and conditions
   
Link to us | Contact us | API | Twitter: @DemonoidP2P | Feeds/RSS | DMCA
Demonoid and the Demonoid logo are Copyright © 2018 Demonoid. All rights reserved.

Show Demonoid some love with 1DNoid2VRyfYn9T38Z1SZ5XncG7WMgCeUL