User log in
User registration
Registrations are closed. If you have an invitation code, click here, or join our twitter, we post invites often there.
Email: forgotten email?
Password: lost pass?
  Resend activation email
Protect your privacy! Use a VPN When Downloading Torrents
Your country is United States of America. Your IP Address is 54.196.73.22.
Your Internet Provider is tracking your torrent activity! Hide your IP ADDRESS with a VPN!
We strongly recommend using NORD VPN to anonymize your torrenting.
Also, while using NORD you get No Ads for Demonoid members Get VPN Now!
Details for Pete's.Dragon.-.(2016).1080p.HEVC.H265.Multi.Audio.[Hindi.Ta
Created by Ratio: 1.00DzrgTorrents
Movies : Adventure : HEVC / x265 : Hindi
[align=center]





Pete's Dragon - (2016) 1080p HEVC H265 Multi Audio [Hindi Tamil Telugu (DD+ 2.0 128 Kbps) -English DD 5.1 448 Kbps ] [Dzrg Torrents].mkv



Taglines: Some secrets are too big to keep.

[video]https://www.youtube.com/watch?v=fPOamb6d_20[/video]



"Thanks To Hammer Bro For The Audios."



General
Unique ID : 163694038478489716333631075636053250535 (0x7B265335F98C01818624FDC126EF91E7)
Format : Matroska
Format version : Version 4 / Version 2
File size : 3.44 GiB
Duration : 1 h 44 min
Overall bit rate : 4 712 kb/s
Movie name : Pete's Dragon - (2016) 1080p HEVC H265 Multi Audio [Hindi Tamil Telugu (DD+ 2.0 128 Kbps) -English DD 5.1 448 Kbps ] [Dzrg Torrents].mkv
Encoded date : UTC 2018-08-12 14:49:08
Writing application : mkvmerge v25.0.0 ('Prog Noir') 64-bit
Writing library : libebml v1.3.6 + libmatroska v1.4.9




Video
ID : 1
Format : HEVC
Format/Info : High Efficiency Video Coding
Format profile : Main@L5@High
Codec ID : V_MPEGH/ISO/HEVC
Duration : 1 h 42 min
Bit rate : 3 948 kb/s
Width : 1 920 pixels
Height : 800 pixels
Display aspect ratio : 2.40:1
Frame rate mode : Constant
Frame rate : 23.976 (24000/1001) FPS
Color space : YUV
Chroma subsampling : 4:2:0
Bit depth : 8 bits
Bits/(Pixel*Frame) : 0.107
Stream size : 2.83 GiB (82%)
Title : Pete's Dragon - (2016) 1080p HEVC H265 Multi Audio [Hindi Tamil Telugu (DD+ 2.0 128 Kbps) -English DD 5.1 448 Kbps ] [Dzrg Torrents].mkv
Language : Hindi
Default : Yes
Forced : No







Audio #1
ID : 2
Format : E-AC-3
Format/Info : Enhanced Audio Coding 3
Codec ID : A_EAC3
Duration : 1 h 44 min
Bit rate mode : Constant
Bit rate : 128 kb/s
Channel(s) : 2 channels
Channel positions : Front: L R
Sampling rate : 48.0 kHz
Frame rate : 187.500 FPS (256 SPF)
Compression mode : Lossy
Stream size : 95.7 MiB (3%)
Title : [Hindi DD+ 2.0 128 Kbps] [Dzrg Torrents]
Language : Hindi
Service kind : Complete Main
Default : Yes
Forced : No




Audio #2
ID : 3
Format : AC-3
Format/Info : Audio Coding 3
Codec ID : A_AC3
Duration : 1 h 42 min
Bit rate mode : Constant
Bit rate : 448 kb/s
Channel(s) : 6 channels
Channel positions : Front: L C R, Side: L R, LFE
Sampling rate : 48.0 kHz
Frame rate : 31.250 FPS (1536 SPF)
Bit depth : 16 bits
Compression mode : Lossy
Stream size : 329 MiB (9%)
Title : [English DD 5.1 448 Kbps ] [Dzrg Torrents]
Language : English
Service kind : Complete Main
Default : No
Forced : No




Audio #3
ID : 4
Format : E-AC-3
Format/Info : Enhanced Audio Coding 3
Codec ID : A_EAC3
Duration : 1 h 44 min
Bit rate mode : Constant
Bit rate : 128 kb/s
Channel(s) : 2 channels
Channel positions : Front: L R
Sampling rate : 48.0 kHz
Frame rate : 187.500 FPS (256 SPF)
Compression mode : Lossy
Stream size : 95.7 MiB (3%)
Title : [Tamil DD+ 2.0 128 Kbps] [Dzrg Torrents]
Language : Tamil
Service kind : Complete Main
Default : No
Forced : No




Audio #4
ID : 5
Format : E-AC-3
Format/Info : Enhanced Audio Coding 3
Codec ID : A_EAC3
Duration : 1 h 44 min
Bit rate mode : Constant
Bit rate : 128 kb/s
Channel(s) : 2 channels
Channel positions : Front: L R
Sampling rate : 48.0 kHz
Frame rate : 187.500 FPS (256 SPF)
Compression mode : Lossy
Stream size : 95.7 MiB (3%)
Title : [Telugu DD+ 2.0 128 Kbps] [Dzrg Torrents]
Language : Telugu
Service kind : Complete Main
Default : No
Forced : No




Text
ID : 6
Format : VobSub
Muxing mode : zlib
Codec ID : S_VOBSUB
Codec ID/Info : Picture based subtitle format used on DVDs
Duration : 1 h 41 min
Bit rate : 6 879 b/s
Count of elements : 1231
Stream size : 4.98 MiB (0%)
Title : [Vob Sub] [Dzrg Torrents]
Language : English
Default : Yes
Forced : No



Menu
00:00:00.000 : en:chapter 1
00:06:03.988 : en:chapter 2
00:09:46.669 : en:chapter 3
00:15:20.127 : en:chapter 4
00:21:28.495 : en:chapter 5
00:30:23.446 : en:chapter 6
00:36:57.965 : en:chapter 7
00:44:03.057 : en:chapter 8
00:52:28.061 : en:chapter 9
00:56:42.565 : en:chapter 10
01:03:13.831 : en:chapter 11
01:10:07.077 : en:chapter 12
01:17:17.507 : en:chapter 13
01:26:46.034 : en:chapter 14
01:32:26.749 : en:chapter 15
01:35:01.362 : en:chapter 16
01:42:45.242 : en:chapter 17


Please Contribute Through Bitcoin-378zyc7YCno2H3kpqQomw1aJaUTaoeQWGC





Seeding From High Server

[/align]
Show Demonoid some love with BitCoin: 1DNoid2VRyfYn9T38Z1SZ5XncG7WMgCeUL How to get BitCoin?

Facebook Twitter Google Digg Reddit LinkedIn StumbleUpon Email

Size: 3.44 GB  
Related torrents
Torrents you may also like:
Download this torrent
Comments

No comments posted yet

Disclaimer: .None of the files shown here are actually hosted or transmitted by this server. The links are provided solely by this site's users. The site moderation is also a service provided by the site's users. The administrator of this site (demonoid.pw) cannot be held responsible for what its users post, or any other actions of its users. You may not use this site to distribute or download any material when you do not have the legal rights to do so. It is your own responsibility to adhere to these terms.

By using this site you indicate your agreement to our terms and conditions
   
Link to us | Contact us | API | Twitter: @DemonoidP2P | Feeds/RSS | DMCA
Demonoid and the Demonoid logo are Copyright © 2018 Demonoid. All rights reserved.

Show Demonoid some love with 1DNoid2VRyfYn9T38Z1SZ5XncG7WMgCeUL